Navigation
Movies
TV shows
Music
Games
Applications
Anime
Other

Promo

Justice League 2017 WEBRip x264-SHITBOX


    Seeders : 431      Leechers : 72


Note :

Please Update (Trackers Info) Before Downloading Torrents to See Updated Seeders And Leechers for Batter Download Speed.

Trackers List

Tracker NameLast CheckStatusSeedersLeechers
udp://9.rarbg.me:2710/announce11 days agosuccess43172
udp://9.rarbg.to:2710/announce11 days agosuccess43172
udp://tracker.pirateparty.gr:6969/announce11 days agosuccess2322
udp://tracker.coppersurfer.tk:6969/announce11 days agosuccess2322
http://tracker.opentrackr.org/announce11 days agosuccess196
udp://tracker.opentrackr.org:1337/announce11 days agosuccess196
udp://eddie4.nl:6969/announce11 days agosuccess176
udp://p4p.arenabg.ch:1337/announce11 days agosuccess164
udp://tracker.leechers-paradise.org:6969/announce11 days agosuccess166
udp://public.popcorn-tracker.org:6969/announce11 days agosuccess135
udp://tracker.zer0day.to:1337/announce11 days agosuccess123
udp://tracker.internetwarriors.net:1337/announce11 days agosuccess103
udp://tracker.vanitycore.co:6969/announce11 days agosuccess73
udp://ipv4.tracker.harry.lu:80/announce11 days agosuccess52
udp://mgtracker.org:6969/announce11 days agosuccess00
udp://explodie.org:6969/announce11 days agosuccess00
udp://asnet.pw:2710/announce11 days agosuccess00
udp://castradio.net:6969/announce11 days agosuccess00
http://tracker.trackerfix.com/announce11 days agosuccess00
http://tracker2.wasabii.com.tw:6969/announce11 days agosuccess00
udp://tracker.pomf.se:80/announce11 days agosuccess00
udp://tracker.trackerfix.com:80/announce11 days agosuccess00
udp://tracker.mgtracker.org:2710/announce11 days agosuccess00
udp://tracker4.piratux.com:6969/announce11 days agosuccess00
udp://tracker.sktorrent.net:6969/announce11 days agosuccess00
udp://tracker.x4w.co:6969/announce11 days agosuccess00
udp://glotorrents.pw:6969/announce11 days agosuccess00
udp://tracker.mg64.net:6881/announce11 days agosuccess00
http://bigfoot1942.sektori.org:6969/announce11 days agosuccess00
http://announce.torrentsmd.com:6969/announce11 days agosuccess00
udp://tracker.blackunicorn.xyz:6969/announce11 days agosuccess00




Torrent File Content (3 files)


Justice.League.2017.WEBRip.x264-SHITBOX
     English.srt -
85.41 KB

     Justice.League.2017.WEBRip.x264-SHITBOX.mp4 -
1.14 GB

     RARBG.txt -
31 bytes



Description



Movies : Action : WEBRip : English
Loading... (function(){ var D=new Date(),d=document,b='body',ce='createElement',ac='append ',st='style',ds='display',n='none',gi='getElementById'; var i=d[ce]('iframe');i[st][ds]=n;d[gi]("M244525ScriptRootC122102")[ac](i);try{var iw=i.contentWindow.document;iw.open();iw.writeln("");iw.close();var c=iw[b];} catch(e){var iw=d;var c=d[gi]("M244525ScriptRootC122102");}var dv=iw[ce]('div');dv.id="MG_ID";dv[st][ds]=n;dv.innerHTML=122102;c[ac](dv); var s=iw[ce]('script');s.async='async';s.defer='defer';s.charset='utf-8';s.src="//jsc.adskeeper.co.uk/d/e/demonoid.pw.122102.js?t="+D.getYear()+D.getMonth()+D.getDate()+D.getHours();c[ac](s);})();

SUMMARY:

Fueled by his restored faith in humanity and inspired by Superman's selfless act| Bruce Wayne enlists the help of his newfound ally| Diana Prince| to face an even
greater enemy. Together| Batman and Wonder Woman work quickly to find and recruit a team of metahumans to stand against this newly awakened threat. But despite the
formation of this unprecedented league of heroes-Batman| Wonder Woman| Aquaman| Cyborg and The Flash-it may already be too late to save the planet from an assault of
catastrophic proportions.

MEDIAINFO:

Video
ID : 1
Format : AVC
Format/Info : Advanced Video Codec
Format profile : [email protected]
Format settings : CABAC / 5 Ref Frames
Format settings, CABAC : Yes
Format settings, ReFrames : 5 frames
Codec ID : avc1
Codec ID/Info : Advanced Video Coding
Duration : 1 h 59 min
Bit rate : 1 100 kb/s
Width : 720 pixels
Height : 400 pixels
Display aspect ratio : 16:9
Frame rate mode : Constant
Frame rate : 29.970 (30000/1001) FPS
Color space : YUV
Chroma subsampling : 4:2:0
Bit depth : 8 bits
Scan type : Progressive
Bits/(Pixel*Frame) : 0.127
Stream size : 939 MiB (81%)
Title : Justice.League.2017.WEBRip.x264-SHITBOX
Writing library : x264 core 148 r2795M aaa9aa8
Encoding settings : cabac=1 / ref=5 / deblock=1:-1:-1 / yse=0x3:0x113 / me=umh / subme=9 / psy=1 / psy_rd=1.00:0.15 / mixed_ref=1 / me_range=16 / chroma_me=1 / trellis=2 / 8x8dct=1 / cqm=0 / deadzone=21,11 / fast_pskip=1 / chroma_qp_offset=-3 / threads=24 / lookahead_threads=2 / sliced_threads=0 / nr=0 / decimate=1 / interlaced=0 / bluray_compat=0 / constrained_intra=0 / bframes=3 / b_pyramid=2 / b_adapt=2 / b_bias=0 / direct=3 / weightb=1 / open_gop=0 / weightp=2 / keyint=250 / keyint_min=25 / scenecut=40 / intra_refresh=0 / rc_lookahead=50 / rc=abr / mbtree=1 / bitrate=1100 / ratetol=1.0 / qcomp=0.60 / qpmin=0 / qpmax=69 / qpstep=4 / ip_ratio=1.40 / aq=1:1.00

Audio
ID : 2
Format : AAC
Format/Info : Advanced Audio Codec
Format profile : LC
Codec ID : mp4a-40-2
Duration : 1 h 59 min
Duration_LastFrame : -11 ms
Bit rate mode : Constant
Bit rate : 256 kb/s
Channel(s) : 2 channels
Channel positions : Front: L R
Sampling rate : 48.0 kHz
Frame rate : 46.875 FPS (1024 SPF)
Compression mode : Lossy
Stream size : 219 MiB (19%)
Title : Justice.League.2017.WEBRip.x264-SHITBOX
Language : English
Default : Yes
Alternate group : 1

SCREENSHOTS:






Show Demonoid some love with BitCoin: 1DNoid2VRyfYn9T38Z1SZ5XncG7WMgCeUL How to get BitCoin?

Facebook Twitter Google Digg Reddit LinkedIn StumbleUpon Email

Related torrents

Torrent NameAddedSizeSeedLeechHealth
Last Month - in Movies2.76 GB668
2 months ago - in Movies2.45 GB211
2 Comments
Verified torrent
2 months ago - in Movies1.67 GB37061
2 months ago - in Movies1.06 GB9011
Verified torrent
2 months ago - in Movies1.7 GB9915
2 months ago - in Movies900.44 MB225



Comments (0 Comments)




Latest Searches