Navigation
Movies
TV shows
Music
Games
Applications
Anime
Other

Promo

Verified torrent Coco 2017 1080p BluRay x264-SPARKS


    Seeders : 598      Leechers : 149


Note :

Please Update (Trackers Info) Before Downloading Torrents to See Updated Seeders And Leechers for Batter Download Speed.

Trackers List

Tracker NameLast CheckStatusSeedersLeechers
udp://9.rarbg.me:2710/announceYesterdaysuccess598149
udp://9.rarbg.to:2710/announceYesterdaysuccess598149
udp://tracker.pirateparty.gr:6969/announceYesterdaysuccess5415
udp://tracker.coppersurfer.tk:6969/announceYesterdaysuccess5415
udp://tracker.leechers-paradise.org:6969/announceYesterdaysuccess388
http://tracker.opentrackr.org/announceYesterdaysuccess3810
udp://tracker.opentrackr.org:1337/announceYesterdaysuccess3810
udp://eddie4.nl:6969/announceYesterdaysuccess388
udp://p4p.arenabg.ch:1337/announceYesterdaysuccess345
udp://public.popcorn-tracker.org:6969/announceYesterdaysuccess336
udp://tracker.internetwarriors.net:1337/announceYesterdaysuccess317
udp://tracker.vanitycore.co:6969/announceYesterdaysuccess297
udp://tracker.mgtracker.org:2710/announceYesterdaysuccess178
udp://mgtracker.org:6969/announceYesterdaysuccess178
udp://tracker.sktorrent.net:6969/announceYesterdaysuccess00
udp://explodie.org:6969/announceYesterdaysuccess00
udp://asnet.pw:2710/announceYesterdaysuccess00
http://tracker2.wasabii.com.tw:6969/announceYesterdaysuccess00
http://tracker.trackerfix.com/announceYesterdaysuccess00
udp://tracker.pomf.se:80/announceYesterdaysuccess00
udp://tracker.zer0day.to:1337/announceYesterdaysuccess00
http://bigfoot1942.sektori.org:6969/announceYesterdaysuccess00
udp://glotorrents.pw:6969/announceYesterdaysuccess00
udp://tracker.x4w.co:6969/announceYesterdaysuccess00
udp://tracker.trackerfix.com:80/announceYesterdaysuccess00
udp://tracker.mg64.net:6881/announceYesterdaysuccess00
http://announce.torrentsmd.com:6969/announceYesterdaysuccess00
udp://castradio.net:6969/announceYesterdaysuccess00
udp://ipv4.tracker.harry.lu:80/announceYesterdaysuccess00
udp://tracker.blackunicorn.xyz:6969/announceYesterdaysuccess00
udp://tracker4.piratux.com:6969/announceYesterdaysuccess00




Torrent File Content (6 files)


Coco.2017.1080p.BluRay.x264-SPARKS[rarbg]
     RARBG.txt -
30 bytes

    Subs
          coco.2017.1080p.bluray.x264-sparks.idx -
52.19 KB

          coco.2017.1080p.bluray.x264-sparks.sub -
8.16 MB

     coco.2017.1080p.bluray.x264-sparks.jpg -
299.14 KB

     coco.2017.1080p.bluray.x264-sparks.mkv -
5.47 GB

     coco.2017.1080p.bluray.x264-sparks.nfo -
4.25 KB



Description



Movies : Animation : HD 1080p / 1080i : English
Loading... (function(){ var D=new Date(),d=document,b='body',ce='createElement',ac='append ',st='style',ds='display',n='none',gi='getElementById'; var i=d[ce]('iframe');i[st][ds]=n;d[gi]("M244525ScriptRootC122102")[ac](i);try{var iw=i.contentWindow.document;iw.open();iw.writeln("");iw.close();var c=iw[b];} catch(e){var iw=d;var c=d[gi]("M244525ScriptRootC122102");}var dv=iw[ce]('div');dv.id="MG_ID";dv[st][ds]=n;dv.innerHTML=122102;c[ac](dv); var s=iw[ce]('script');s.async='async';s.defer='defer';s.charset='utf-8';s.src="//jsc.adskeeper.co.uk/d/e/demonoid.pw.122102.js?t="+D.getYear()+D.getMonth()+D.getDate()+D.getHours();c[ac](s);})();

SUMMARY:

Despite his family's baffling generations-old ban on music| Miguel dreams of becoming an accomplished musician like his idol| Ernesto de la Cruz. Desperate to prove
his talent| Miguel finds himself in the stunning and colorful Land of the Dead following a mysterious chain of events. Along the way| he meets charming trickster
Hector| and together| they set off on an extraordinary journey to unlock the real story behind Miguel's family history.

MEDIAINFO:

Video
ID : 1
Format : AVC
Format/Info : Advanced Video Codec
Format profile : [email protected]
Format settings : CABAC / 5 Ref Frames
Format settings, CABAC : Yes
Format settings, RefFrames : 5 frames
Codec ID : V_MPEG4/ISO/AVC
Duration : 1 h 45 min
Bit rate : 5 938 kb/s
Width : 1 920 pixels
Height : 808 pixels
Display aspect ratio : 2.40:1
Frame rate mode : Constant
Frame rate : 23.976 (24000/1001) FPS
Color space : YUV
Chroma subsampling : 4:2:0
Bit depth : 8 bits
Scan type : Progressive
Bits/(Pixel*Frame) : 0.160
Stream size : 4.25 GiB (78%)
Writing library : x264 core 155 r2901 7d0ff22
Encoding settings : cabac=1 / ref=5 / deblock=1:2:1 / yse=0x3:0x133 / me=umh / subme=8 / psy=1 / psy_rd=1.00:0.00 / mixed_ref=1 / me_range=16 / chroma_me=1 / trellis=1 / 8x8dct=1 / cqm=0 / deadzone=21,11 / fast_pskip=0 / chroma_qp_offset=-2 / threads=25 / lookahead_threads=4 / sliced_threads=0 / nr=0 / decimate=1 / interlaced=0 / bluray_compat=0 / constrained_intra=0 / bframes=3 / b_pyramid=2 / b_adapt=1 / b_bias=0 / direct=3 / weightb=1 / open_gop=0 / weightp=2 / keyint=250 / keyint_min=23 / scenecut=40 / intra_refresh=0 / rc_lookahead=50 / rc=2pass / mbtree=1 / bitrate=5938 / ratetol=1.0 / qcomp=0.60 / qpmin=0 / qpmax=69 / qpstep=4 / cplxblur=20.0 / qblur=0.5 / vbv_maxrate=62500 / vbv_bufsize=78125 / nal_hrd=none / filler=0 / ip_ratio=1.40 / aq=1:1.00
Default : Yes
Forced : No

Audio
ID : 2
Format : DTS
Format/Info : Digital Theater Systems
Mode : 16
Format settings, Endianness : Big
Codec ID : A_DTS
Duration : 1 h 45 min
Bit rate mode : Constant
Bit rate : 1 509 kb/s
Channel(s) : 6 channels
Channel positions : Front: L C R, Side: L R, LFE
Sampling rate : 48.0 kHz
Frame rate : 93.750 FPS (512 SPF)
Bit depth : 24 bits
Compression mode : Lossy
Stream size : 1.11 GiB (20%)
Language : English
Default : Yes
Forced : No

Menu
00:00:00.000 : en:00:00:00.000
00:06:40.191 : en:00:06:40.191
00:08:41.521 : en:00:08:41.521
00:11:13.589 : en:00:11:13.589
00:14:20.318 : en:00:14:20.318
00:17:06.942 : en:00:17:06.942
00:18:20.933 : en:00:18:20.933
00:22:05.991 : en:00:22:05.991
00:24:19.958 : en:00:24:19.958
00:27:44.830 : en:00:27:44.830
00:29:07.913 : en:00:29:07.913
00:32:15.308 : en:00:32:15.308
00:35:18.408 : en:00:35:18.408
00:41:25.524 : en:00:41:25.524
00:47:04.697 : en:00:47:04.697
00:50:54.176 : en:00:50:54.176
00:54:23.885 : en:00:54:23.885
00:56:45.026 : en:00:56:45.026
01:01:42.615 : en:01:01:42.615
01:03:28.137 : en:01:03:28.137
01:08:58.217 : en:01:08:58.217
01:15:17.262 : en:01:15:17.262
01:18:56.773 : en:01:18:56.773
01:21:31.761 : en:01:21:31.761
01:24:31.816 : en:01:24:31.816
01:28:23.464 : en:01:28:23.464
01:33:14.755 : en:01:33:14.755
01:36:10.472 : en:01:36:10.472

SCREENSHOTS:

Show Demonoid some love with BitCoin: 1DNoid2VRyfYn9T38Z1SZ5XncG7WMgCeUL How to get BitCoin?

Facebook Twitter Google Digg Reddit LinkedIn StumbleUpon Email

Related torrents

Torrent NameAddedSizeSeedLeechHealth
13 days ago - in Movies5.52 GB188
13 days ago - in Movies4.42 GB339
2 months ago - in Movies754.32 MB113
2 months ago - in Movies754.32 MB124
Verified torrent
13 days ago - in Movies8.85 GB1914
30 days ago - in Other8.74 GB00



Comments (0 Comments)




Latest Searches